#TITLE:M;
#SUBTITLE:Above & Beyond Mix;
#ARTIST:浜崎あゆみ;
#TITLETRANSLIT:;
#SUBTITLETRANSLIT:;
#ARTISTTRANSLIT:Ayumi Hamasaki;
#CREDIT:;
#BANNER:M (above & beyond mix).png;
#BACKGROUND:M (above & beyond mix)-BG.png;
#LYRICSPATH:;
#CDTITLE:cdtitle.png;
#MUSIC:M (Above and Beyond remix).mp3;
#OFFSET:0.840;
#SAMPLESTART:160.601;
#SAMPLELENGTH:30.000;
#SELECTABLE:YES;
#BPMS:0.000=69.000,17.250=138.000,144.333=138.000,210.250=138.000,240.333=138.000,374.250=138.000,517.333=138.000,579.250=0.000,822.250=138.000;
#STOPS:;
#BGCHANGES:;
// cache tags:
#FIRSTBEAT:2.000;
#LASTBEAT:570.271;
#SONGFILENAME:Songs/SS Ayu Style -Mini Pack-/(M) (Above & Beyond Mix)/M (above & beyond).sm;
#HASMUSIC:1;
#HASBANNER:1;
#MUSICLENGTH:255.007;
// end cache tags

//---------------dance-single - MANIAC----------------
#NOTES:
     dance-single:
     MANIAC:
     Hard:
     10:
     0.751,0.922,0.176,0.122,0.851,1265.000,45.000,31.000,0.000,0.000:
0000
0000
0000
0000
0000
0000
0000
0000
0000
0000
0000
0000
0000
0000
0000
0000
0100
0000
0000
0000
1000
0000
0000
0000
0000
0000
0010
0100
0000
0000
0000
0000
,
0000
0001
0000
0010
0000
0100
0000
1000
0001
1000
0000
0000
0000
0000
0000
0100
0000
1100
0000
0000
0000
0001
0000
0000
0000
0101
0000
0000
0000
0000
0000
0000
,
0000
0010
0000
1000
0000
0100
0000
0010
0001
0010
0000
0000
0000
0000
0000
0100
0000
0000
0000
1000
0000
0000
0000
0000
0000
0001
0000
0100
0000
0000
0000
0000
,
0000
0010
0000
1000
0000
0100
0000
1000
0100
1000
0000
0000
0000
0000
0000
0001
0000
0100
0000
0000
0000
0010
0000
0000
0000
1000
0100
0020
0000
0000
0030
0000
,
0000
0000
0000
0000
0000
0000
0000
0000
0010
0000
0000
0000
0000
0000
0000
0020
0000
0000
0000
0000
0000
0000
0000
0000
0000
0000
0000
0000
0000
0000
2030
0000
0000
0000
0000
0000
0000
0000
0000
0000
0000
0000
3200
0000
0000
0000
0000
0000
,
0000
0000
0000
0000
0310
0002
0000
0000
0000
0000
0000
0000
1003
0000
0001
0000
,
0100
0000
0001
0100
0002
0000
0000
0000
0000
0000
1003
0000
1001
0000
0000
0000
,
1200
0000
0000
0300
0020
0000
0000
0000
0000
0000
0030
0000
0100
0000
1000
0000
,
0001
0000
0100
0001
0100
0000
0000
0000
0000
0000
0010
0000
0000
0000
1001
0000
,
0000
0000
0100
0010
0000
0000
0001
0001
,
1000
0000
0100
0000
0010
0000
0000
0000
0000
0000
0100
0000
0000
1000
0000
0000
,
0002
0000
0000
0000
0103
0001
0200
0000
0000
0000
0320
0000
0000
0000
1030
0000
,
0000
0000
0001
0000
0000
0000
1000
0100
0000
0100
0010
0000
0010
0001
0000
0001
,
0100
0000
0001
0100
0001
0000
0100
0010
0000
0010
1000
0000
1000
0100
0000
0100
,
0010
0000
0001
0100
0001
0000
0100
0010
0000
0010
1000
0000
1000
0100
0000
0100
,
0010
0000
0010
0001
0010
0000
0100
1000
0000
1000
0010
0000
0010
0100
0000
0100
,
0010
0000
0100
0010
0100
0000
0010
1000
0000
1000
0100
0000
0100
0010
0000
0010
,
0001
0000
0010
0001
0010
0000
0100
1000
0000
1000
0001
0000
0001
0100
0000
0100
,
0001
0000
0100
0001
0100
0000
0001
1000
0000
0001
1000
0000
0001
1000
0000
0001
,
1000
0000
0001
1000
0001
0000
1000
0010
0000
1000
0100
0000
1000
0010
0000
1000
,
0100
0000
1000
0010
1000
0100
1000
0000
0010
0000
0100
0000
0000
0000
0002
0000
,
0000
0000
0000
0000
0013
0002
0000
0000
0000
0000
0000
0000
1003
0000
0001
0000
,
0100
0000
0010
1000
0020
0000
0000
0030
0000
0000
0100
0000
0110
0000
0000
0000
,
1001
0000
0000
0000
1200
0000
0000
0300
0000
0000
0000
0000
0010
0000
0001
0000
,
1000
0000
0001
1000
0001
0000
0000
0000
0000
0000
0010
0000
0000
0000
0110
0000
,
0000
0000
0000
0010
1000
0000
0000
0000
0000
0000
0000
0000
0100
0000
0010
0000
,
0100
0000
1000
0100
0010
0000
0000
0000
0000
0000
0001
0000
1100
0000
0000
0000
,
0001
0000
0000
0000
0100
0010
0200
0000
0000
0000
0000
0000
0000
0000
0000
0000
,
0000
0000
0300
0000
0000
0000
0002
0000
0000
0000
0103
0000
0010
1000
0000
1000
,
0100
0000
0010
0100
0010
0100
0010
0001
0000
0001
0100
0000
0100
0010
0000
0010
,
1000
0000
1000
0001
1000
0001
1000
0100
0000
1000
0100
0000
0100
0010
0000
0010
,
0001
0000
0100
0001
0100
0001
0100
0010
0000
1000
0010
0000
0010
1000
0000
1000
,
0001
0000
1000
0100
1000
0100
1000
0001
0000
0010
0001
0000
0001
1000
0000
1000
,
0010
0000
0100
0010
0100
0010
0100
1000
0000
0100
0010
0000
0100
0001
0000
1000
,
0100
0000
0010
0001
0010
0001
0010
0100
0000
1000
0010
0000
0010
0100
0000
0100
,
0001
0000
1000
0100
1000
0100
1000
0001
0000
0010
0100
0000
0100
1000
0000
2000
,
0000
0000
0000
0000
0000
0000
0010
3000
0000
0000
1000
0000
0000
0100
0010
0000
,
0001
0000
0001
0100
0010
0000
1000
0000
0100
0000
0010
0000
0001
0100
0000
0100
,
0010
0000
1000
0000
0100
0000
0010
0000
0001
0000
1000
0000
1000
0100
0000
0000
,
1000
1001
0100
0010
0001
0100
0010
0010
,
0000
0000
1000
0000
0100
1000
0100
0000
1000
0000
0001
0000
0010
0100
0000
0100
,
0010
0000
0001
0000
0100
0000
0010
0000
0000
0000
1001
0000
0100
0010
0000
0000
,
0000
0000
0001
0000
0001
1000
0000
0000
1000
0000
1000
0000
1000
0100
0000
0000
,
0100
0010
0001
0001
0100
0010
1000
0000
,
0001
0000
0000
0000
0000
0000
0001
1000
0000
0000
1100
0000
0000
0001
0000
0100
,
0010
0000
1000
0000
0000
1000
0000
1000
0100
0000
0100
0000
0000
0010
0001
0000
,
0001
0100
0000
0010
0000
0000
1000
0001
1000
0000
0020
1000
0000
0000
0030
1000
,
0100
1000
0100
1000
0010
1000
0001
1000
0010
1000
0100
0010
0001
0100
0010
0001
,
0100
0010
0001
0100
0010
1000
0010
1000
0010
1000
0001
1000
0100
1000
0100
1000
,
0100
1000
0100
1000
0100
1000
0010
0100
0010
0100
0001
1000
0100
0010
0001
0100
,
0010
1000
0100
0010
0001
0100
0010
1000
0100
0010
0001
0100
0001
1000
0010
1000
,
0010
1000
0001
1000
0001
1000
0100
1000
0001
0010
0100
0000
1001
0000
0200
0000
,
0000
0000
0000
0000
0000
0000
0010
0300
1000
0000
0100
0000
0010
0001
0000
0001
,
0100
0000
0010
0000
1000
0100
0000
0100
0010
0000
0001
0000
0100
0001
0100
0001
,
0100
0001
0100
0001
0100
0001
0100
0001
0100
0000
0010
0000
1000
0100
0000
0100
,
0010
0000
0001
0000
0100
0001
0000
0100
0001
0000
0100
0000
0010
1000
0000
0010
,
1000
0000
0100
0000
1000
0100
0000
1000
0100
0000
1000
0000
0001
0100
0000
0001
,
0100
0000
0010
0000
1000
0100
0000
0010
0001
0000
0100
0000
0010
1000
0000
1000
,
0010
0000
1000
0000
0100
0010
0000
0010
0001
0000
0100
0000
0100
0001
0000
0001
,
0100
0000
0010
0000
1000
0100
0000
0100
0010
0000
0001
0000
0100
0000
0010
0000
,
1000
0000
1001
0000
0100
0000
1001
0000
0010
0000
0100
0000
0001
0010
0000
0010
,
0100
0000
1000
0000
1000
0001
0000
0001
0100
0000
0010
0000
1000
0100
0000
0100
,
0010
0000
0001
0000
0100
0010
0000
0010
1000
0000
0100
0000
1000
0100
0000
1000
,
0010
0000
1000
0000
0001
0010
0000
0010
0100
0000
1000
0000
1000
0001
0000
0001
,
0100
0000
0010
0000
1000
0100
0000
0010
0001
0000
0100
0000
0010
1000
0000
1000
,
0100
0000
0010
0000
0001
0100
0000
0100
0010
0000
1000
0000
0100
1000
0000
0100
,
1000
0000
0001
0000
0100
0001
0000
0100
0001
0000
0100
0000
0010
1000
0000
0010
,
1000
0000
0100
0000
0010
0001
0010
0001
0010
0001
0010
0001
0010
0000
0100
0000
,
1000
0001
0001
0100
0010
1000
0100
0100
,
0010
0000
0001
0000
0100
0000
0010
1000
0100
0010
0001
0100
0010
1000
0100
0010
,
0001
0100
0010
1000
0100
0010
0001
0100
0001
0100
0001
0100
0010
1000
0100
0010
,
0001
0100
0010
1000
0100
0010
0001
0000
0100
0000
0101
0000
0010
1000
0000
1000
,
0100
0010
0001
0100
0010
1001
0000
1100
,
0000
0000
0000
0000
0001
0100
0000
0000
0000
0000
0000
0000
0010
0000
1000
0000
,
0100
0000
0010
0001
0010
0000
0000
0000
0000
0000
0100
0000
1001
0000
0000
0000
,
0010
0000
0000
0000
2002
0000
0000
0000
0000
0000
3000
0003
0000
0000
0010
0000
,
1000
0100
0100
0010
0001
0100
0000
0010
,
0000
0000
0000
0000
1000
0100
0000
0000
0000
0000
0000
0000
0001
0000
0010
0000
,
0100
0000
1000
0001
0000
1000
0000
0000
0000
0000
0001
0000
0000
0101
0000
0000
,
1010
0000
0000
0000
0000
0100
0010
0000
0000
0002
0000
0000
0000
0000
0000
0000
,
0000
0000
0000
0003
0000
0000
1000
0001
0000
0001
0100
0000
0100
0010
0000
0010
,
1000
0000
0100
1000
0100
1000
0100
1000
0000
0001
0010
0000
0010
0100
0000
0100
,
1000
0000
0001
0100
0001
0100
0001
0100
0000
0010
0100
0000
0100
0010
0000
1000
,
0001
0000
1000
0100
1000
0100
1000
0100
0000
1000
0001
0000
0010
0100
0000
1000
,
0001
0000
0100
0001
0100
0001
0100
0001
0000
0100
0010
0000
1000
0001
0000
1000
,
0100
0000
0010
0001
0010
0001
0010
0001
0000
1000
0100
0000
1000
0001
0000
0100
,
0010
0000
1000
0010
1000
0010
1000
0010
0000
0100
0001
0000
1000
0100
0000
0010
,
0001
0000
1000
0001
1000
0001
1000
0010
0000
0100
0001
0000
1000
0100
0000
0010
,
0001
0000
1000
0000
0010
0000
1001
0000
0000
0000
0100
0000
1000
0001
0000
0000
,
0100
0000
0101
0000
0010
0000
1000
0000
0100
0000
0010
0000
0001
0100
0000
0000
,
0000
0000
0010
0000
1000
0010
1000
0000
0000
0000
0001
0000
1000
0100
0000
0000
,
1000
1001
1100
0010
0001
0100
0010
0010
,
0000
0000
0001
0000
1000
0001
1000
0000
0100
0000
1000
0000
1000
0001
0000
0000
,
0100
0000
0101
0000
0010
0000
1000
0000
0100
0000
0010
0000
0001
0100
0000
0000
,
0000
0000
0010
0000
1000
0100
0000
0000
0010
0000
0001
0000
0100
0001
0000
0000
,
1000
1001
1100
0001
0100
0010
2000
0000
,
0002
0000
0000
3000
0000
0003
0010
0000
0100
0000
1000
0000
0001
0100
0000
0100
,
0010
0000
1000
0000
0100
0010
0000
0001
0010
0000
0100
0000
1000
0001
0000
1000
,
0001
0000
0100
0000
0001
0100
0000
0001
0100
0000
0010
0000
1000
0100
0000
0010
,
0001
0000
0100
0000
0010
1000
0000
0010
1000
0000
0001
0000
1000
0100
0000
0000
,
0010
0000
0000
0000
0000
0000
0000
0000
0000
0000
0000
0000
0000
0000
0000
0000
0000
0000
0000
0000
0000
0000
0000
0000
1000
0000
0000
0000
0000
0000
0000
0000
0000
0000
0000
0000
0000
0000
0000
0000
0000
0000
0000
0000
0000
0000
0000
0000
0110
0000
0000
0000
0000
0000
0000
0000
0000
0000
0000
0000
0000
0000
0000
0000
0000
0000
0000
0000
0000
0000
0000
0000
0002
0000
0000
0000
0000
0000
0000
0000
0000
0000
0000
0000
0200
0000
0000
0000
0000
0000
0000
0000
0000
0000
0000
0000
0000
0000
0000
0000
0000
0000
0000
0000
0000
0000
0000
0000
0000
0000
0000
0000
0000
0000
0000
0000
0000
0000
0000
0000
0000
0000
0000
0000
0000
0000
0000
0000
0000
0000
0000
0000
0000
0000
0000
0000
0000
0000
0000
0000
0000
0000
0000
0000
0000
0000
0000
0000
0000
0000
0000
0000
0000
0000
0000
0000
0000
0000
0000
0000
0000
0000
0000
0000
0000
0000
0000
0000
0000
0000
0000
0000
0000
0000
0000
0000
0000
0000
0000
0000
0000
0303
0000
0000
0000
0000
0000
0000
0000
0000
0000
0000
,
1000
0000
0100
0000
0010
0001
0100
0001
0100
0001
0100
0001
0100
0001
0100
0001
,
0100
0001
0100
0001
0100
0001
0100
0001
0100
0001
0100
0000
0010
0100
0000
0001
,
1000
0000
0100
0000
0010
0001
0000
1000
0100
0000
1000
0000
1001
0000
1100
0000
,
0001
0000
0100
0000
0020
0000
0000
0030
1000
0000
0001
0000
0010
0100
0000
1000
,
0001
0000
0100
0000
0010
1000
0000
0100
0010
0000
0001
0000
0100
0001
0000
0100
,
0001
0000
1000
0000
0100
1000
0000
0100
1000
0000
0001
0000
0010
0100
0000
1000
,
0001
0000
0100
0000
0010
1000
0000
0001
1000
0000
0100
0000
0010
0000
0011
0000
,
0100
0000
1000
0000
0001
0000
0100
0000
0010
0000
0010
0000
1000
0100
0000
0100
,
0010
0000
0001
0000
1000
0001
0000
1000
0001
0000
0100
0000
0010
0100
0000
0010
,
0100
0000
0001
0000
1000
0100
0000
0010
0001
0000
1000
0000
0100
1000
0000
0001
,
0100
0000
0010
0000
1000
0100
0000
0010
0001
0000
0100
0000
1001
0000
1100
0000
,
0001
0000
0100
0000
0010
0000
1000
0000
0000
0000
0001
0000
1000
0100
0000
0000
,
1000
0000
1001
0000
1100
0000
0001
0000
0010
0000
0100
0000
1000
0010
0000
0000
,
0000
0000
0100
0000
0001
0100
0001
0000
0000
0000
0010
0000
1000
0010
0000
0000
,
1000
1001
1100
0001
0010
0100
0100
1000
,
0000
0000
0001
0000
1000
0001
1000
0000
0100
0000
1000
0000
1000
0001
0000
0000
,
0100
0000
0101
0000
0010
0000
1000
0000
0100
0000
0010
0000
0001
1000
0000
0000
,
0000
0000
0100
0000
1000
0100
0000
0000
1000
0000
0001
0000
0100
0001
0000
0000
,
1000
1001
1100
0001
0010
0100
1000
0000
,
0002
0000
0000
0000
0000
0003
0100
0000
0001
0000
0100
0000
0010
0000
1000
0000
,
0001
0000
1000
0000
0100
0000
1000
0000
0001
0000
0100
0000
0010
1000
0100
1000
,
0010
0000
1000
0000
0100
0000
0010
0000
0001
0000
1000
0000
0001
1000
0001
1000
,
0001
0000
1000
0000
0100
0000
0010
0000
0100
0000
0010
0000
0100
0010
0100
0010
,
0100
0000
0010
0000
0001
0000
1000
0000
0100
0000
0010
0000
0001
0100
0001
0100
,
0010
0000
0100
0000
0001
0000
1000
0000
0100
0000
0010
0000
0100
1000
0100
0010
,
0100
0000
1000
0000
0001
0000
0100
0000
0010
0000
0100
0000
0001
0100
0001
0100
,
0010
0000
0100
0000
0001
0000
1000
0000
0100
0000
0010
0000
0100
1000
0100
0010
,
0100
0000
1000
0000
1000
0000
1010
0000
0010
0000
0010
0000
0100
0001
0000
0001
,
1000
0000
0100
0000
0010
0000
0001
0000
0100
0000
0010
0000
1000
0100
0000
0100
,
0010
0000
0001
0000
0100
0000
0010
0000
1000
0000
0100
0000
0000
0010
0001
1000
,
0001
0000
0000
0000
0100
0000
0010
0000
1000
0000
0100
0000
0000
0100
0000
0100
,
1000
0000
0010
0000
1000
0000
0010
0000
1000
0000
0010
0000
0000
0010
0000
0010
,
1000
0000
0001
0000
0100
0000
0001
0000
0100
0000
0001
0000
0000
0100
0000
0100
,
0001
0000
0100
0000
0001
0000
1000
0000
0100
0000
1000
0000
0100
1000
0000
1000
,
0100
0000
1000
0000
0010
0000
0000
0100
0001
0000
0010
0000
0100
1000
0000
1000
,
0001
0000
0100
0000
0010
0000
1000
0000
0100
0000
0000
0000
0001
0100
0000
0100
,
0001
0000
0100
0000
0010
0000
0100
0000
0001
0000
0100
0000
0010
0100
0000
0100
,
0001
0000
1000
0000
0100
0000
1000
0000
0010
0000
1000
0000
0100
1000
0000
1000
,
0001
0000
0100
0000
0001
0000
0100
0000
0001
0000
0100
0000
0001
0100
0000
0100
,
0001
0000
0010
0000
0001
0000
0010
0000
0001
0000
0010
0000
0001
0010
0000
0010
,
0001
0000
1000
0000
0001
0000
1000
0000
0001
0000
1000
0000
0001
1000
0000
1000
,
0001
0000
0000
0000
0000
0000
0000
0000
0000
0000
0000
0000
0000
0000
0000
0000
0000
0000
0000
0000
0000
0000
0000
0000
2002
0000
0000
0000
0000
0000
0000
0000
0000
0000
0000
0000
0000
0000
0000
0000
0000
0000
0000
0000
0000
0000
0000
0000
0000
0000
0000
0000
0000
0000
0000
0000
0000
0000
0000
0000
0000
0000
0000
0000
0000
0000
0000
0000
0000
0000
0000
0000
0000
0000
0000
0000
0000
0000
0000
0000
0000
0000
0000
0000
0000
0000
0000
0000
0000
0000
0000
0000
0000
0000
0000
0000
0000
0000
0000
0000
0000
0000
0000
0000
0000
0000
0000
0000
0000
3003
0000
0000
0000
0000
0000
0000
0000
0000
0000
0000
0000
0000
0000
0000
0000
0000
0000
0000
0000
0000
0000
0000
0000
0000
0000
0000
0000
0000
0000
0000
0000
0000
0000
0000
0000
0000
0000
0000
0000
0000
0000
0000
0000
0000
0000
0000
0000
0000
0000
0000
0000
0000
0000
0000
0000
0000
0000
0000
0000
0000
0000
0000
0000
0000
0000
0000
0000
0000
0000
0000
0000
0000
0000
0000
0000
0000
0000
0000
0000
0000
0000
0000
;
